• 300阅读
  • 1回复

[2018][大陆][爱情][流星花园(全49集)][WEB-MKV/720P/1080P][国语中字] [复制链接]

上一主题 下一主题
在线jzf1971
 

发帖
29751
金币
79542
人品
4219
亲朋
115

◎译  名 花样男子
◎片  名 流星花园
◎年  代 2018
◎产  地 中国大陆
◎类  别 爱情
◎语  言 汉语普通话
◎上映日期 2018-07-09(中国大陆)
◎集  数 48
◎片  长 45分钟
◎导  演 柴智屏 Angie Chai / 林合隆 Her-Long Lin
◎主  演 沈月 Yue Shen
      王鹤棣 Dylan
      官鸿 Kuanhung Chan
      梁靖康 Jingkang Liang
      吴希泽 Caesar Wu
      孙伊涵 Yihan Sun
      王润泽 Runze Wang
      孙千 Qian Sun
      刘尹昊 Yinhao Liu
      厉嘉琪 Jiaqi Li
      刘烨 Lidia Liu
      董馨 Xin Dong
      徐熙娣 Dee Hsu
      王琳 Lin Wang
      郭采洁 Amber Kuo
      王月 Moon Wang
      庾澄庆 Harlem Yu
      李泉 James Li

◎简  介

  18岁的平凡女生杉菜转入了精英学校英德大学却与同学们格格不入。学校里有四个外形阳光帅气,家境富裕的学生:道明寺,花泽类,西门和美作。因为杉菜看不惯道明寺飞扬跋扈的模样,仗义的杉菜与他产生了争执,从此之后,道明寺常常恶作剧作弄杉菜。之后一系列的事情发生,使杉菜与道明寺之间的误会逐渐的加深。但每到危急时刻,花泽类都会出现帮助杉菜并帮其解围。杉菜凭借其杂草般顽强的生命力逐渐改变了这四个男生对其不好的印象,与他们的关系也逐渐缓和,变成了朋友,从平凡女生变成了全校同学的榜样。道明寺也因为在恶作剧杉菜的过程中,被她不屈不挠的乐观天性所吸引,不知不觉的爱上了杉菜。两个人经历了重重阻碍,最终走在了一起,收获了爱情。


Video
ID : 1
Format : AVC
Format/Info : Advanced Video Codec
Format profile : Main@L3.1
Format settings : CABAC / 3 Ref Frames
Format settings, CABAC : Yes
Format settings, ReFrames : 3 frames
Codec ID : V_MPEG4/ISO/AVC
Duration : 47 min 0 s
Bit rate mode : Variable
Bit rate : 4 020 kb/s
Maximum bit rate : 6 030 kb/s
Width : 1 280 pixels
Height : 720 pixels
Display aspect ratio : 16:9
Frame rate mode : Constant
Frame rate : 25.000 FPS
Color space : YUV
Chroma subsampling : 4:2:0
Bit depth : 8 bits
Scan type : Progressive
Bits/(Pixel*Frame) : 0.174
Stream size : 1.32 GiB (97%)
Writing library : x264 core 148 r2715 7e75228
Encoding settings : cabac=1 / ref=3 / deblock=1:0:0 / analyse=0x1:0x111 / me=umh / subme=10 / psy=1 / psy_rd=1.00:0.00 / mixed_ref=1 / me_range=24 / chroma_me=1 / trellis=2 / 8x8dct=0 / cqm=0 / deadzone=21,11 / fast_pskip=1 / chroma_qp_offset=-2 / threads=8 / lookahead_threads=1 / sliced_threads=0 / nr=0 / decimate=1 / interlaced=0 / bluray_compat=0 / stitchable=1 / constrained_intra=0 / bframes=2 / b_pyramid=0 / b_adapt=2 / b_bias=0 / direct=3 / weightb=1 / open_gop=0 / weightp=2 / keyint=50 / keyint_min=26 / scenecut=0 / intra_refresh=0 / rc_lookahead=50 / rc=2pass / mbtree=1 / bitrate=4020 / ratetol=1.0 / qcomp=0.50 / qpmin=6 / qpmax=51 / qpstep=4 / cplxblur=20.0 / qblur=0.5 / vbv_maxrate=6030 / vbv_bufsize=8040 / nal_hrd=vbr / filler=0 / ip_ratio=1.40 / aq=1:1.00
Default : Yes
Forced : No

Audio
ID : 2
Format : E-AC-3
Format/Info : Enhanced Audio Coding 3
Codec ID : A_EAC3
Duration : 47 min 0 s
Bit rate mode : Constant
Bit rate : 128 kb/s
Channel(s) : 2 channels
Channel positions : Front: L R
Sampling rate : 48.0 kHz
Frame rate : 187.500 FPS (256 SPF)
Compression mode : Lossy
Stream size : 43.0 MiB (3%)
Title : Mandarin
Language : Chinese
Service kind : Complete Main
Default : Yes
Forced : No

Text #1
ID : 3
Format : UTF-8
Codec ID : S_TEXT/UTF8
Codec ID/Info : UTF-8 Plain Text
Duration : 43 min 37 s
Bit rate : 34 b/s
Count of elements : 387
Stream size : 11.0 KiB (0%)
Language : English
Default : No
Forced : No

Text #2
ID : 4
Format : UTF-8
Codec ID : S_TEXT/UTF8
Codec ID/Info : UTF-8 Plain Text
Duration : 43 min 37 s
Bit rate : 33 b/s
Count of elements : 402
Stream size : 10.9 KiB (0%)
Language : Korean
Default : No
Forced : No

Text #3
ID : 5
Format : UTF-8
Codec ID : S_TEXT/UTF8
Codec ID/Info : UTF-8 Plain Text
Duration : 42 min 0 s
Bit rate : 31 b/s
Count of elements : 436
Stream size : 9.62 KiB (0%)
Title : Simplified
Language : Chinese
Default : No
Forced : No

Text #4
ID : 6
Format : UTF-8
Codec ID : S_TEXT/UTF8
Codec ID/Info : UTF-8 Plain Text
Duration : 43 min 37 s
Bit rate : 30 b/s
Count of elements : 438
Stream size : 9.75 KiB (0%)
Title : Traditional
Language : Chinese
Default : No
Forced : No
2条评分金币+20人品+1
sznsw 人品 +1 您的发言很精彩,飘域有你更精彩! 09-05
sznsw 金币 +20 您的发言很精彩,飘域有你更精彩! 09-05
在线sznsw

发帖
5311
金币
73161
人品
459
亲朋
40
只看该作者 沙发  发表于: 09-05
您的发言很精彩,飘域有你更精彩!
快速回复
限600 字节
【严重提醒】:胡乱回复、恶意灌水是要被杀掉的!请注意您的言行举止!
 
上一个 下一个