• 239阅读
  • 2回复

[2018][大陆][喜剧][快把我哥带走(全30集)][Netflix版MKV/1080P][国语中字] [复制链接]

上一主题 下一主题
离线jzf1971
 

发帖
29375
金币
78020
人品
4058
亲朋
115

◎译  名 TakeMyBrotherAway
◎片  名 快把我哥带走
◎年  代 2018
◎产  地 中国大陆
◎类  别 喜剧/家庭
◎语  言 汉语普通话
◎上映日期 2018-06-28(中国大陆)
◎集  数 30
◎片  长 45分钟
◎导  演 韩青 Qing Han
◎主  演 曾舜晞 Joseph Zeng
      孙千 Qian Sun
      王旭东 Xudong Wang
      胡永涛 Angelo Hu
      马柏全 Boquan Ma
      吕小雨 Xiaoyu Lü
      许晓诺 Xiaonuo Xu
      李梦露 Menglu Li
      谭泉 Quan Tan
      云天飞 Jafir Yun
      魏子昕 Zixin Wei
      赵叶索 Yesuo Zhao
      刘杨 Yang Liu
      蔡光泰 Guangtai Cai
      张琛 Chen Zhang
      罗海琼 Haiqiong Luo
      张本煜 Benyu Zhang
      曹卫宇 Weiyu Cao
      张恒 Heng Zhang
      李泰 Li Tai
      褚栓忠 Shuanzhong Chu
      李艺彤 Yitong Li

◎简  介

  如果有这样一个哥哥你是否会跟时秒一样每天都想暴走一百遍?!说好的,烤肠给妹妹,自己只吃一口,却一大口都吞掉;说好石头剪刀布,输掉的人去买冰淇淋,回来的时候却少了一个冰淇淋球;土豆炖牛肉连吃6天,最终变成根本看不出来是什么的黑暗料理。“我哥”那个人……霸气侧漏的妹妹“时秒”和懒散逗比的哥哥“时分”,可以因为各种日常小事冲突吵架大打出手,遇到困难的时候,却又坚定地站在对方一边,默默地守护彼此。 哥哥的好基友“甄开心”,傻白甜,也是颜值担当。妹妹的闺蜜“妙妙”可爱热心,差点误会哥哥是“渣男”……

Video
ID : 1
Format : AVC
Format/Info : Advanced Video Codec
Format profile : Main@L4
Format settings : CABAC / 3 Ref Frames
Format settings, CABAC : Yes
Format settings, ReFrames : 3 frames
Codec ID : V_MPEG4/ISO/AVC
Duration : 45 min 57 s
Bit rate mode : Variable
Bit rate : 7 500 kb/s
Maximum bit rate : 11.2 Mb/s
Width : 1 920 pixels
Height : 1 080 pixels
Display aspect ratio : 16:9
Frame rate mode : Constant
Frame rate : 25.000 FPS
Color space : YUV
Chroma subsampling : 4:2:0
Bit depth : 8 bits
Scan type : Progressive
Bits/(Pixel*Frame) : 0.145
Stream size : 2.40 GiB (98%)
Writing library : x264 core 148 r2715 7e75228
Encoding settings : cabac=1 / ref=3 / deblock=1:0:0 / analyse=0x1:0x111 / me=umh / subme=10 / psy=1 / psy_rd=1.00:0.00 / mixed_ref=1 / me_range=24 / chroma_me=1 / trellis=2 / 8x8dct=0 / cqm=0 / deadzone=21,11 / fast_pskip=1 / chroma_qp_offset=-2 / threads=8 / lookahead_threads=1 / sliced_threads=0 / nr=0 / decimate=1 / interlaced=0 / bluray_compat=0 / stitchable=1 / constrained_intra=0 / bframes=2 / b_pyramid=0 / b_adapt=2 / b_bias=0 / direct=3 / weightb=1 / open_gop=0 / weightp=2 / keyint=50 / keyint_min=26 / scenecut=0 / intra_refresh=0 / rc_lookahead=50 / rc=2pass / mbtree=1 / bitrate=7500 / ratetol=1.0 / qcomp=0.50 / qpmin=6 / qpmax=51 / qpstep=4 / cplxblur=20.0 / qblur=0.5 / vbv_maxrate=11250 / vbv_bufsize=15000 / nal_hrd=vbr / filler=0 / ip_ratio=1.40 / aq=1:1.00
Default : Yes
Forced : No

Audio
ID : 2
Format : E-AC-3
Format/Info : Enhanced Audio Coding 3
Codec ID : A_EAC3
Duration : 45 min 57 s
Bit rate mode : Constant
Bit rate : 128 kb/s
Channel(s) : 2 channels
Channel positions : Front: L R
Sampling rate : 48.0 kHz
Frame rate : 187.500 FPS (256 SPF)
Compression mode : Lossy
Stream size : 42.1 MiB (2%)
Title : Mandarin
Language : Chinese
Service kind : Complete Main
Default : Yes
Forced : No

Text #1
ID : 3
Format : UTF-8
Codec ID : S_TEXT/UTF8
Codec ID/Info : UTF-8 Plain Text
Duration : 43 min 53 s
Bit rate : 48 b/s
Count of elements : 574
Stream size : 15.6 KiB (0%)
Language : English
Default : No
Forced : No

Text #2
ID : 4
Format : UTF-8
Codec ID : S_TEXT/UTF8
Codec ID/Info : UTF-8 Plain Text
Duration : 41 min 47 s
Bit rate : 43 b/s
Count of elements : 632
Stream size : 13.2 KiB (0%)
Title : Simplified
Language : Chinese
Default : No
Forced : No

Text #3
ID : 5
Format : UTF-8
Codec ID : S_TEXT/UTF8
Codec ID/Info : UTF-8 Plain Text
Duration : 43 min 52 s
Bit rate : 43 b/s
Count of elements : 644
Stream size : 13.9 KiB (0%)
Title : Traditional
Language : Chinese
Default : No
Forced : No


2条评分金币+20人品+1
sznsw 人品 +1 您的发言很精彩,飘域有你更精彩! 09-12
sznsw 金币 +20 您的发言很精彩,飘域有你更精彩! 09-12
 
在线sznsw

发帖
5122
金币
70810
人品
459
亲朋
40
只看该作者 沙发  发表于: 09-12
您的发言很精彩,飘域有你更精彩!
离线zhangxiao255

发帖
440
金币
629
人品
0
亲朋
0
只看该作者 板凳  发表于: 10-05
感谢楼主的分享
快速回复
限600 字节
【严重提醒】:胡乱回复、恶意灌水是要被杀掉的!请注意您的言行举止!
 
上一个 下一个