• 254阅读
  • 1回复

[2017][大陆][爱情][致我们单纯的小美好(全23集)][Netflix版-MKV/1080P][国语中字] [复制链接]

上一主题 下一主题
离线jzf1971
 

发帖
29772
金币
79484
人品
4221
亲朋
115
注:Netflix版片源 内含官方中字  更多字幕详见下面参数列表

◎译  名 ALoveSoBeautiful
◎片  名 致我们单纯的小美好
◎年  代 2017
◎产  地 中国大陆
◎类  别 剧情/爱情
◎语  言 汉语普通话
◎上映日期 2017-11-09(中国大陆)
◎豆瓣评分 7.3/10 from 62,405 users
◎豆瓣链接 https://movie.douban.com/subject/27008416/
◎集  数 23
◎片  长 45分钟
◎导  演 唐彬 Bin Tang / 杨龙 Long Yang
◎主  演 胡一天 Yitian Hu
      沈月 Yue Shen
      高至霆 Zhiting Gao
      王梓薇 Ziwei Wang
      孙宁 Ning Sun
      吕艳 Yan Lü
      周紫馨 Zixin Zhou
      王佳慧 Jiahui Wang
      那聖岩 Shengyan Na
      周喆 Zhe Zhou
      小熊班尼 Xiaoxiongbanni
      蒋胜男 Shengnan Jiang
      赵耀东 Yaodong Zhao
      秦子然 Ziran Qin
      徐明哲 Mingzhe Xu
      张何昊臻 Haozhen Zhanghe
      杜艳 Yan Du
      黄霆 Ting Huang
      红坚 Jian Hong
      陆玲 Ling Lu
      孙浠伦 Xilun Sun
      王子谦 Ziqian Wang
      张星 Xing Zhang
      何家豪 Jiahao He
      王俏霖 Qiaolin Wang
      范淑珍 Shuzhen Fan
      崔斌 Bin Cui
      郑雪菲 Xuefei Zheng
      詹思羽 Siyu Zhan
      徐可 Ke Xu
      胡闰奇 Runqi Hu
      尹航 Hang Yin
      龚珺 Jun Gong
      蒲绿闹 Lünao Pu
      何小虎 Xiaohu He
      张子墨 Zimo Zhang
      郑湘敏 Xiangmin Zheng
      茹天 Ru Tian
      陈予清 Yuqing Chen
      牟丙剑桥 Bingjianqiao Mu
      谷军卫 Junwei Gu
      任重 Zhong Ren
      白离卫 Liwei Bai
      褚柳生 Liusheng Chu
      宋文娟 Wenjuan Song
      赵臣枫 Chenfeng Zhao
      郭海鹏 Haipeng Guo
      安冉 Ran An
      周庆一 Qingyi Zhou
      朱红妃 Hongfei Zhu

◎简  介

  改编自赵乾乾同名畅销小说,主要讲述了陈小希与江辰19年间共同成长,从青梅竹马到错失后的再次牵手的爱情故事。腹黑傲娇的天才医生,蠢萌逗比的元气少女,全剧气质俏皮幽默,通过展现陈小希倒追江辰一路上啼笑皆非的日常,记录了青春时光里最美好的心动时刻,将专属17岁少男少女之间的青涩感情呈现出来,带领观众重返好时光。

◎获奖情况

  第4届豆瓣电影年度榜单  (2017)
  评分最高的大陆网络剧集(提名)


Video
ID : 1
Format : AVC
Format/Info : Advanced Video Codec
Format profile : Main@L4
Format settings : CABAC / 3 Ref Frames
Format settings, CABAC : Yes
Format settings, ReFrames : 3 frames
Codec ID : V_MPEG4/ISO/AVC
Duration : 50 min 38 s
Bit rate mode : Variable
Bit rate : 7 500 kb/s
Maximum bit rate : 11.2 Mb/s
Width : 1 920 pixels
Height : 1 080 pixels
Display aspect ratio : 16:9
Frame rate mode : Constant
Frame rate : 25.000 FPS
Color space : YUV
Chroma subsampling : 4:2:0
Bit depth : 8 bits
Scan type : Progressive
Bits/(Pixel*Frame) : 0.145
Stream size : 2.64 GiB (98%)
Writing library : x264 core 148 r2715 7e75228
Encoding settings : cabac=1 / ref=3 / deblock=1:0:0 / analyse=0x1:0x111 / me=umh / subme=10 / psy=1 / psy_rd=1.00:0.00 / mixed_ref=1 / me_range=24 / chroma_me=1 / trellis=2 / 8x8dct=0 / cqm=0 / deadzone=21,11 / fast_pskip=1 / chroma_qp_offset=-2 / threads=8 / lookahead_threads=1 / sliced_threads=0 / nr=0 / decimate=1 / interlaced=0 / bluray_compat=0 / stitchable=1 / constrained_intra=0 / bframes=2 / b_pyramid=0 / b_adapt=2 / b_bias=0 / direct=3 / weightb=1 / open_gop=0 / weightp=2 / keyint=50 / keyint_min=26 / scenecut=0 / intra_refresh=0 / rc_lookahead=50 / rc=2pass / mbtree=1 / bitrate=7500 / ratetol=1.0 / qcomp=0.50 / qpmin=6 / qpmax=51 / qpstep=4 / cplxblur=20.0 / qblur=0.5 / vbv_maxrate=11250 / vbv_bufsize=15000 / nal_hrd=vbr / filler=0 / ip_ratio=1.40 / aq=1:1.00
Default : Yes
Forced : No

Audio
ID : 2
Format : E-AC-3
Format/Info : Enhanced Audio Coding 3
Codec ID : A_EAC3
Duration : 50 min 38 s
Bit rate mode : Constant
Bit rate : 128 kb/s
Channel(s) : 2 channels
Channel positions : Front: L R
Sampling rate : 48.0 kHz
Frame rate : 187.500 FPS (256 SPF)
Compression mode : Lossy
Stream size : 46.4 MiB (2%)
Title : Mandarin
Language : Chinese
Service kind : Complete Main
Default : Yes
Forced : No

Text #1
ID : 3
Format : UTF-8
Codec ID : S_TEXT/UTF8
Codec ID/Info : UTF-8 Plain Text
Duration : 50 min 17 s
Bit rate : 63 b/s
Count of elements : 815
Stream size : 23.5 KiB (0%)
Language : English
Default : No
Forced : No

Text #2
ID : 4
Format : UTF-8
Codec ID : S_TEXT/UTF8
Codec ID/Info : UTF-8 Plain Text
Duration : 50 min 19 s
Bit rate : 64 b/s
Count of elements : 864
Stream size : 23.9 KiB (0%)
Language : Korean
Default : No
Forced : No

Text #3
ID : 5
Format : UTF-8
Codec ID : S_TEXT/UTF8
Codec ID/Info : UTF-8 Plain Text
Duration : 49 min 0 s
Bit rate : 49 b/s
Count of elements : 844
Stream size : 17.9 KiB (0%)
Title : Simplified
Language : Chinese
Default : No
Forced : No

Text #4
ID : 6
Format : UTF-8
Codec ID : S_TEXT/UTF8
Codec ID/Info : UTF-8 Plain Text
Duration : 44 min 58 s
Bit rate : 0 b/s
Count of elements : 5
Stream size : 120 Bytes (0%)
Title : Traditional[Forced]
Language : Chinese
Default : No
Forced : Yes

Text #5
ID : 7
Format : UTF-8
Codec ID : S_TEXT/UTF8
Codec ID/Info : UTF-8 Plain Text
Duration : 50 min 17 s
Bit rate : 51 b/s
Count of elements : 863
Stream size : 18.9 KiB (0%)
Title : Traditional
Language : Chinese
Default : No
Forced : No

Text #6
ID : 8
Format : UTF-8
Codec ID : S_TEXT/UTF8
Codec ID/Info : UTF-8 Plain Text
Duration : 50 min 19 s
Bit rate : 57 b/s
Count of elements : 659
Stream size : 21.1 KiB (0%)
Language : Spanish
Default : No
Forced : No

Text #7
ID : 9
Format : UTF-8
Codec ID : S_TEXT/UTF8
Codec ID/Info : UTF-8 Plain Text
Duration : 50 min 19 s
Bit rate : 62 b/s
Count of elements : 802
Stream size : 23.1 KiB (0%)
Language : French
Default : No
Forced : No

Text #8
ID : 10
Format : UTF-8
Codec ID : S_TEXT/UTF8
Codec ID/Info : UTF-8 Plain Text
Duration : 50 min 19 s
Bit rate : 57 b/s
Count of elements : 657
Stream size : 21.1 KiB (0%)
Language : German
Default : No
Forced : No

Text #9
ID : 11
Format : UTF-8
Codec ID : S_TEXT/UTF8
Codec ID/Info : UTF-8 Plain Text
Duration : 50 min 19 s
Bit rate : 61 b/s
Count of elements : 702
Stream size : 22.8 KiB (0%)
Language : Italian
Default : No
Forced : No

Text #10
ID : 12
Format : UTF-8
Codec ID : S_TEXT/UTF8
Codec ID/Info : UTF-8 Plain Text
Duration : 50 min 19 s
Bit rate : 60 b/s
Count of elements : 833
Stream size : 22.2 KiB (0%)
Language : Turkish
Default : No
Forced : No

Text #11
ID : 13
Format : UTF-8
Codec ID : S_TEXT/UTF8
Codec ID/Info : UTF-8 Plain Text
Duration : 50 min 17 s
Bit rate : 115 b/s
Count of elements : 814
Stream size : 42.4 KiB (0%)
Language : Bulgarian
Default : No
Forced : No

Text #12
ID : 14
Format : UTF-8
Codec ID : S_TEXT/UTF8
Codec ID/Info : UTF-8 Plain Text
Duration : 50 min 19 s
Bit rate : 74 b/s
Count of elements : 837
Stream size : 27.4 KiB (0%)
Language : Vietnamese
Default : No
Forced : No

Text #13
ID : 15
Format : UTF-8
Codec ID : S_TEXT/UTF8
Codec ID/Info : UTF-8 Plain Text
Duration : 50 min 19 s
Bit rate : 152 b/s
Count of elements : 872
Stream size : 56.3 KiB (0%)
Language : Thai
Default : No
Forced : No


2条评分金币+20人品+1
sznsw 人品 +1 您的发言很精彩,飘域有你更精彩! 09-12
sznsw 金币 +20 您的发言很精彩,飘域有你更精彩! 09-12
 
离线sznsw

发帖
5313
金币
73212
人品
459
亲朋
40
只看该作者 沙发  发表于: 09-12
您的发言很精彩,飘域有你更精彩!
快速回复
限600 字节
【严重提醒】:胡乱回复、恶意灌水是要被杀掉的!请注意您的言行举止!
 
上一个 下一个