• 163阅读
  • 1回复

[惊悚]双面玛莎/迷懵梦寐 2011.LIMITED.1080p.BluRay.x264-7.65GB [复制链接]

上一主题 下一主题
离线jzf1971
 

发帖
29375
金币
78184
人品
4058
亲朋
115

◎译  名 双面玛莎/迷懵梦寐(台)/玛莲邪教离魂曲(港)/玛莎·玛西·梅·玛琳
◎片  名 Martha Marcy May Marlene
◎年  代 2011
◎产  地 美国
◎类  别 剧情/悬疑/惊悚
◎语  言 英语
◎上映日期 2011-07-10(美国)
◎IMDb评分  6.9/10 from 44,828 users
◎IMDb链接  http://www.imdb.com/title/tt1441326/
◎豆瓣评分 6.3/10 from 4,427 users
◎豆瓣链接 https://movie.douban.com/subject/3750088/
◎片  长 110分钟
◎导  演 肖恩·德金 Sean Durkin
◎主  演 伊丽莎白·奥尔森 Elizabeth Olsen
      约翰·哈克斯 John Hawkes
      莎拉·保罗森 Sarah Paulson
      休·丹西 Hugh Dancy
      克里斯托弗·阿波特 Christopher Abbott
      布拉迪·科贝特 Brady Corbet
      玛丽亚·迪齐亚 Maria Dizzia

◎简  介

  《双面玛莎》根据真实事件改编,曾入围2011年圣丹斯电影和戛纳电影节一种关注单元,影片在圣丹斯公映后备受好评,被认为是2011年的《冬天的骨头》。
  年轻女孩玛莎(伊丽莎白·奥尔森 Elizabeth Olsen 饰)曾误入邪教,被教主帕里克(约翰·哈克斯 John Hawkes 饰)洗脑,并以宗教仪式的名义“被强奸”,好不容易才逃脱邪教控制得以脱身。随后她找到姐姐露西(莎拉·保罗森 Sarah Paulson 饰),和姐姐与姐夫泰德(休·丹西 Hugh Dancy 饰)开始了新的生活,并对过去失踪时发生的事闭口不提。在日复一日的看似正常与平静的生活里,玛莎努力忘记不堪回首的过去。但邪教组织的生活如噩梦般在玛莎脑海里挥之不去,她感到恐惧和不安,甚至开始分不清什么是真实,什么是幻觉……

◎获奖情况

  第64届戛纳电影节  (2011)
  一种关注单元 一种关注大奖(提名) 肖恩·德金

  第77届纽约影评人协会奖  (2011)
  最佳处女作(提名) 肖恩·德金

  第17届美国评论家选择电影奖  (2012)
  最佳女主角(提名) 伊丽莎白·奥尔森

  第27届美国独立精神奖  (2012)
  最佳处女作(提名) 乔什·蒙德 / 肖恩·德金 / 安东尼奥·坎波斯 / 帕特里克·康宁翰 / 克里斯·迈巴赫
  最佳女主角(提名) 伊丽莎白·奥尔森
  最佳男配角(提名) 约翰·浩克斯
  制片新人奖(提名) 乔什·蒙德

  第10届华盛顿影评人协会奖  (2011)
  最佳女主角(提名) 伊丽莎白·奥尔森
  最佳男配角(提名) 约翰·浩克斯

  第32届波士顿影评人协会奖  (2011)
  最佳处女作 肖恩·德金

  第16届圣地亚哥影评人协会奖  (2011)
  最佳女主角(提名) 伊丽莎白·奥尔森

  第24届芝加哥影评人协会奖  (2011)
  最佳女主角(提名) 伊丽莎白·奥尔森
  最佳原创剧本(提名) 肖恩·德金
  最具潜力演员 伊丽莎白·奥尔森
  最具潜力导演 肖恩·德金

  第11届凤凰城影评人协会奖  (2011)
  最佳女主角 伊丽莎白·奥尔森
  最佳男配角(提名) 约翰·浩克斯
  最佳新人导演(提名) 肖恩·德金

Video
ID : 1
Format : AVC
Format/Info : Advanced Video Codec
Format profile : High@L4.1
Format settings : CABAC / 5 Ref Frames
Format settings, CABAC : Yes
Format settings, ReFrames : 5 frames
Codec ID : V_MPEG4/ISO/AVC
Duration : 1 h 41 min
Bit rate : 9 235 kb/s
Width : 1 920 pixels
Height : 800 pixels
Display aspect ratio : 2.40:1
Frame rate mode : Constant
Frame rate : 23.976 (24000/1001) FPS
Color space : YUV
Chroma subsampling : 4:2:0
Bit depth : 8 bits
Scan type : Progressive
Bits/(Pixel*Frame) : 0.251
Stream size : 6.42 GiB (84%)
Writing library : x264 core 120 r2120 0c7dab9
Encoding settings : cabac=1 / ref=5 / deblock=1:0:0 / analyse=0x3:0x133 / me=umh / subme=8 / psy=1 / psy_rd=1.00:0.00 / mixed_ref=1 / me_range=16 / chroma_me=1 / trellis=1 / 8x8dct=1 / cqm=0 / deadzone=21,11 / fast_pskip=1 / chroma_qp_offset=-2 / threads=24 / sliced_threads=0 / nr=0 / decimate=1 / interlaced=0 / bluray_compat=0 / constrained_intra=0 / bframes=3 / b_pyramid=2 / b_adapt=1 / b_bias=0 / direct=1 / weightb=1 / open_gop=0 / weightp=2 / keyint=250 / keyint_min=23 / scenecut=40 / intra_refresh=0 / rc=2pass / mbtree=0 / bitrate=9235 / ratetol=1.0 / qcomp=0.60 / qpmin=0 / qpmax=69 / qpstep=4 / cplxblur=20.0 / qblur=0.5 / ip_ratio=1.40 / pb_ratio=1.30 / aq=1:1.00
Language : English
Default : Yes
Forced : No

Audio
ID : 2
Format : DTS
Format/Info : Digital Theater Systems
Codec ID : A_DTS
Duration : 1 h 41 min
Bit rate mode : Constant
Bit rate : 1 509 kb/s
Channel(s) : 6 channels
Channel layout : C L R Ls Rs LFE
Sampling rate : 48.0 kHz
Frame rate : 93.750 FPS (512 SPF)
Bit depth : 24 bits
Compression mode : Lossy
Stream size : 1.07 GiB (14%)
Title : English
Language : English
Default : Yes
Forced : No

 
在线janlove

发帖
25
金币
116
人品
0
亲朋
0
只看该作者 沙发  发表于: 10-11
好像很不錯
感謝樓主分享~
快速回复
限600 字节
【严重提醒】:胡乱回复、恶意灌水是要被杀掉的!请注意您的言行举止!
 
上一个 下一个