• 315阅读
  • 5回复

[BT]复仇者联盟4:终局之战 Avengers.Endgame.2019.3D.1080p.BluRay.x264-14.22GB [复制链接]

上一主题 下一主题
在线jzf1971
 

发帖
31832
金币
101871
人品
4690
亲朋
115




◎译  名 复仇者联盟4:终局之战 / AVG4 / Avengers: Infinity War - Part II / The Avengers 3: Part 2 / The Avengers 4: Endgame / 复仇者联盟3:无尽之战(下) / 复联4
◎片  名 Avengers: Endgame
◎年  代 2019
◎产  地 美国
◎类  别 动作 / 科幻 / 奇幻 / 冒险
◎语  言 英语 / 日语 / 科萨语
◎上映日期 2019-04-24(中国大陆) / 2019-04-26(美国)
◎IMDb评分  8.7/10 from 487015 users
◎IMDb链接  http://www.imdb.com/title/tt4154796
◎豆瓣评分 8.6/10 from 630015 users
◎豆瓣链接 https://movie.douban.com/subject/26100958/
◎片  长 181分钟
◎导  演 安东尼·罗素 Anthony Russo / 乔·罗素 Joe Russo
◎编  剧 克里斯托弗·马库斯 Christopher Markus / 斯蒂芬·麦克菲利 Stephen McFeely / 斯坦·李 Stan Lee / 杰克·科比 Jack Kirby / 吉姆·斯特林 Jim Starlin
◎主  演 小罗伯特·唐尼 Robert Downey Jr.
      克里斯·埃文斯 Chris Evans
      马克·鲁弗洛 Mark Ruffalo
      克里斯·海姆斯沃斯 Chris Hemsworth
      斯嘉丽·约翰逊 Scarlett Johansson
      杰瑞米·雷纳 Jeremy Renner
      保罗·路德 Paul Rudd
      凯伦·吉兰 Karen Gillan
      唐·钱德尔 Don Cheadle
      布丽·拉尔森 Brie Larson
      布莱德利·库珀 Bradley Cooper
      泰莎·汤普森 Tessa Thompson
      汤姆·赫兰德 Tom Holland
      伊丽莎白·奥尔森 Elizabeth Olsen
      本尼迪克特·康伯巴奇 Benedict Cumberbatch
      蒂尔达·斯文顿 Tilda Swinton
      格温妮斯·帕特洛 Gwyneth Paltrow
      蕾妮·罗素 Rene Russo
      约翰·斯拉特里 John Slattery
      查德维克·博斯曼 Chadwick Boseman
      安东尼·麦凯 Anthony Mackie
      塞巴斯蒂安·斯坦 Sebastian Stan
      克里斯·帕拉特 Chris Pratt
      汤姆·希德勒斯顿 Tom Hiddleston
      佐伊·索尔达娜 Zoe Saldana
      丹娜·奎里拉 Danai Gurira
      本尼迪克特·王 Benedict Wong
      庞·克莱门捷夫 Pom Klementieff
      戴夫·巴蒂斯塔 Dave Bautista
      利蒂希娅·赖特 Letitia Wright
      伊万杰琳·莉莉 Evangeline Lilly
      乔恩·费儒 Jon Favreau
      海莉·阿特维尔 Hayley Atwell
      娜塔莉·波特曼 Natalie Portman
      玛丽莎·托梅 Marisa Tomei
      塔伊加·维迪提 Taika Waititi
      安吉拉·贝塞特 Angela Bassett
      迈克尔·道格拉斯 Michael Douglas
      米歇尔·菲佛 Michelle Pfeiffer
      威廉·赫特 William Hurt
      寇碧·史莫德斯 Cobie Smulders
      肖恩·古恩 Sean Gunn
      温斯顿·杜克 Winston Duke
      琳达·卡德里尼 Linda Cardellini
      马克斯米利亚诺·赫尔南德斯 Maximiliano Hernández
      弗兰克·格里罗 Frank Grillo
      真田广之 Hiroyuki Sanada
      汤姆-沃恩-劳勒 Tom Vaughan-Lawlor
      詹姆斯·达西 James D'Arcy
      雅各布·巴特朗 Jacob Batalon
      范·迪塞尔 Vin Diesel
      罗伯特·雷德福 Robert Redford
      乔什·布洛林 Josh Brolin
      塞缪尔·杰克逊 Samuel L. Jackson
      伊薇特·尼科尔·布朗 Yvette Nicole Brown
      卡梅伦·布鲁姆布罗 Cameron Brumbelow
      蒂莫西·卡尔 Timothy Carr
      凯瑞·康顿 Kerry Condon
      迈克尔·A·库克 Michael A. Cook
      凯莉·库恩 Carrie Coon
      艾玛·福尔曼 Emma Fuhrmann
      雷纳·加拉赫 Renah Gallagher
      丹妮拉·加斯基 Daniela Gaskie
      郑肯 Ken Jeong
      小弗洛伊德·安东尼·约翰 Floyd Anthony Johns Jr.
      斯坦·李 Stan Lee
      罗斯·马昆德 Ross Marquand
      布伦特·麦吉 Brent McGee
      迈克尔·皮耶里诺·米勒 Michael Pierino Miller
      卡兰·马尔韦 Callan Mulvey
      泰瑞·诺塔里 Terry Notary
      吉米·雷·皮肯斯 Jimmy Ray Pickens
      迈克尔·詹姆斯·肖 Michael James Shaw
      泰·辛普金斯 Ty Simpkins
      格雷格·蒂芬 Greg Tiffan


◎标  签 漫威 | 超级英雄 | 科幻 | 美国 | 2019 | 情怀 | 动作 | 漫画改编

◎简  介  

  一声响指,宇宙间半数生命灰飞烟灭。几近绝望的复仇者们在惊奇队长(布丽·拉尔森 Brie Larson 饰)的帮助下找到灭霸(乔什·布洛林 Josh Brolin 饰)归隐之处,却得知六颗无限宝石均被销毁,希望彻底破灭。如是过了五年,迷失在量子领域的蚁人(保罗·路德 Paul Rudd 饰)意外回到现实世界,他的出现为幸存的复仇者们点燃了希望。与美国队长(克里斯·埃文斯 Chris Evans 饰)冰释前嫌的托尼(小罗伯特·唐尼 Robert Downey Jr. 饰)找到了穿越时空的方法,星散各地的超级英雄再度集结,他们分别穿越不同的时代去搜集无限宝石。而在这一过程中,平行宇宙的灭霸察觉了他们的计划。
注定要载入史册的最终决战,超级英雄们为了心中恪守的信念前仆后继……

◎获奖情况  

  第28届MTV电影奖(2019)
  MTV电影奖 年度电影
  MTV电影奖 最佳打斗(提名) 乔什·布洛林 / 克里斯·埃文斯
  MTV电影奖 最佳反派 乔什·布洛林
  MTV电影奖 最佳英雄形象 小罗伯特·唐尼

  第5届豆瓣电影年度榜单(2018)
  最值得期待的外语电影



Video
ID                                       : 1
Format                                   : AVC
Format/Info                              : Advanced Video Codec
Format profile                           : High@L4.1
MultiView_Count                          : 2
MultiView_Layout                         : Side by Side (left eye first)
Format settings                          : CABAC / 5 Ref Frames
Format settings, CABAC                   : Yes
Format settings, Reference frames        : 5 frames
Codec ID                                 : V_MPEG4/ISO/AVC
Duration                                 : 3 h 1 min
Bit rate                                 : 9 710 kb/s
Width                                    : 1 920 pixels
Height                                   : 808 pixels
Display aspect ratio                     : 2.40:1
Frame rate mode                          : Constant
Frame rate                               : 23.976 FPS
Color space                              : YUV
Chroma subsampling                       : 4:2:0
Bit depth                                : 8 bits
Scan type                                : Progressive
Bits/(Pixel*Frame)                       : 0.261
Stream size                              : 12.3 GiB (87%)
Writing library                          : x264 core 157 r2969 d4099dd
Encoding settings                        : cabac=1 / ref=5 / deblock=1:-1:-1 / analyse=0x3:0x113 / me=umh / subme=8 / psy=1 / psy_rd=1.00:0.00 / mixed_ref=1 / me_range=16 / chroma_me=1 / trellis=2 / 8x8dct=1 / cqm=0 / deadzone=21,11 / fast_pskip=0 / chroma_qp_offset=-2 / threads=25 / lookahead_threads=4 / sliced_threads=0 / nr=0 / decimate=1 / interlaced=0 / bluray_compat=0 / constrained_intra=0 / bframes=5 / b_pyramid=2 / b_adapt=1 / b_bias=0 / direct=3 / weightb=1 / open_gop=0 / weightp=1 / keyint=250 / keyint_min=23 / scenecut=40 / intra_refresh=0 / rc_lookahead=40 / rc=2pass / mbtree=1 / bitrate=9710 / ratetol=1.0 / qcomp=0.60 / qpmin=0 / qpmax=69 / qpstep=4 / cplxblur=20.0 / qblur=0.5 / ip_ratio=1.40 / aq=1:1.00
Language                                 : English
Default                                  : Yes
Forced                                   : No

Audio
ID                                       : 2
Format                                   : DTS
Format/Info                              : Digital Theater Systems
Codec ID                                 : A_DTS
Duration                                 : 3 h 1 min
Bit rate mode                            : Constant
Bit rate                                 : 1 509 kb/s
Channel(s)                               : 6 channels
Channel layout                           : C L R Ls Rs LFE
Sampling rate                            : 48.0 kHz
Frame rate                               : 93.750 FPS (512 SPF)
Bit depth                                : 24 bits
Compression mode                         : Lossy
Stream size                              : 1.91 GiB (13%)
Language                                 : English
Default                                  : Yes
Forced                                   : No

Text
ID                                       : 3
Format                                   : VobSub
Codec ID                                 : S_VOBSUB
Codec ID/Info                            : Picture based subtitle format used on DVDs
Duration                                 : 1 min 34 s
Bit rate                                 : 10.4 kb/s
Count of elements                        : 13
Stream size                              : 119 KiB (0%)
Language                                 : English
Default                                  : Yes
Forced                                   : Yes

Menu
00:00:00.000                             : :Kapitel 01
00:08:05.902                             : :Kapitel 02
00:20:01.700                             : :Kapitel 03
00:26:15.282                             : :Kapitel 04
00:36:57.173                             : :Kapitel 05
00:43:20.598                             : :Kapitel 06
00:48:44.171                             : :Kapitel 07
00:57:36.745                             : :Kapitel 08
01:07:12.612                             : :Kapitel 09
01:16:02.516                             : :Kapitel 10
01:26:25.430                             : :Kapitel 11
01:32:20.118                             : :Kapitel 12
01:38:55.805                             : :Kapitel 13
01:48:12.361                             : :Kapitel 14
01:57:26.915                             : :Kapitel 15
02:05:00.243                             : :Kapitel 16
02:15:06.432                             : :Kapitel 17
02:25:50.450                             : :Kapitel 18
02:34:37.935                             : :Kapitel 19
02:43:03.899                             : :Kapitel 20
02:49:05.344                             : :Kapitel 21

 

发帖
374
金币
301
人品
-7
亲朋
0
只看该作者 沙发  发表于: 08-22
啊哟,抢了个沙发,不容易啊
在线cw7012

发帖
19
金币
20
人品
0
亲朋
0
只看该作者 板凳  发表于: 08-22
这个期待已久,谢谢楼主
离线oyrfj

发帖
479
金币
1868
人品
0
亲朋
0
只看该作者 地板  发表于: 08-30
谢谢分享!
离线renyi1986

发帖
2
金币
2
人品
0
亲朋
0
只看该作者 4楼 发表于: 09-09
左右比上下效果差太多,为什么只有左右
离线15032207001

发帖
3
金币
3
人品
0
亲朋
0
只看该作者 5楼 发表于: 昨天 12:31
楼上的请问
只有3d头显   请问上下格式的是在什么设备播放的呢  不知道能不能兼容
我的3D头显好像只能左右
快速回复
限600 字节
【严重提醒】:胡乱回复、恶意灌水是要被杀掉的!请注意您的言行举止!
 
上一个 下一个